Sie sind nicht angemeldet.





Lieber Besucher, herzlich willkommen bei: GayPower. Falls dies Ihr erster Besuch auf dieser Seite ist, lesen Sie sich bitte die Hilfe durch. Dort wird Ihnen die Bedienung dieser Seite näher erläutert. Darüber hinaus sollten Sie sich registrieren, um alle Funktionen dieser Seite nutzen zu können. Benutzen Sie das Registrierungsformular, um sich zu registrieren oder informieren Sie sich ausführlich über den Registrierungsvorgang. Falls Sie sich bereits zu einem früheren Zeitpunkt registriert haben, können Sie sich hier anmelden.

G_P

Administrator

  • »G_P« ist der Autor dieses Themas

Beiträge: 5 848

Registrierungsdatum: 28. Juli 2011

Level: 52 [?]

Erfahrungspunkte: 15 581 014

Nächstes Level: 16 259 327

  • Nachricht senden

1

Sonntag, 28. Juni 2015, 13:07

Cody Cummings Unleashed 11 (HD)


Cody Cummings Unleashed 11






Title: Cody Cummings Unleashed 11 [720p]
Genre: Muscle
Runtime: 124 Min.
Language:
Video Stream: DVD-RIP
Audio Stream: Line
Video Codec: MPEG-4 DivX / Xvid
Hoster: Uploaded.net, Share-online.biz, Filefactory.com
Size: 3674 MB
Parts: 19
Crypter:
Stream via




Versteckter Text Versteckter Text

Um den versteckten Text sehen zu können müssen sie sich einloggen oder kostenlos registrieren.





Beschreibung

Cody Cummings Unleashed porn Watch some serious hunks roll around and have some playtime! Six smoking hot scenes!


Released: 12/2010
Studio Name: Next Door Studios
Series: Cody Cummings Unleashed
Stars: Christian Wilde, Cody Cummings, Taylor Aims, Brec Boyd, Aryx Quinn, Noah Driver, Coco Ono Velvet


Spoiler Spoiler

NFO

Format                      : Windows Media
File size                   : 3.59 GiB
Duration                    : 2h 4mn
Overall bit rate mode       : Constant
Overall bit rate            : 4 127 Kbps
Maximum Overall bit rate    : 4 195 Kbps
Encoded date                : UTC 2015-02-25 17:13:13.385

Video
ID                          : 2
Format                      : VC-1
Format profile              : MP@HL
Codec ID                    : WMV3
Codec ID/Info               : Windows Media Video 9
Codec ID/Hint               : WMV3
Description of the codec    : Windows Media Video 9 - Professional
Duration                    : 2h 4mn
Bit rate mode               : Constant
Bit rate                    : 4 096 Kbps
Width                       : 1 280 pixels
Height                      : 720 pixels
Display aspect ratio        : 16:9
Frame rate                  : 29.970 fps
Color space                 : YUV
Chroma subsampling          : 4:2:0
Bit depth                   : 8 bits
Scan type                   : Progressive
Compression mode            : Lossy
Bits/(Pixel*Frame)          : 0.148
Stream size                 : 3.56 GiB (99%)
Language                    : Russian
NumberOfFrames              : 223859

Audio
ID                          : 1
Format                      : WMA
Format version              : Version 2
Codec ID                    : 161
Codec ID/Info               : Windows Media Audio
Description of the codec    : Windows Media Audio 9.2 -  64 kbps, 44 kHz, stereo 1-pass CBR
Duration                    : 2h 4mn
Bit rate mode               : Constant
Bit rate                    : 64.0 Kbps
Channel(s)                  : 2 channels
Sampling rate               : 44.1 KHz
Bit depth                   : 16 bits
Stream size                 : 57.0 MiB (2%)
Language                    : Russian
NumberOfFrames              : 20109






Versteckter Text Versteckter Text

Um den versteckten Text sehen zu können müssen sie sich einloggen oder kostenlos registrieren.



Quali Upgrade auf 720p




Es haben sich bereits 25 registrierte Benutzer bedankt.

Benutzer, die sich für diesen Beitrag bedankt haben:

Coffey719 (06.03.2015), epsonstilusc82 (06.03.2015), cutietune (06.03.2015), schiller (06.03.2015), cjmelo (06.03.2015), GermanGayMan (07.03.2015), aladin7.7 (08.03.2015), austrian_boy_18 (08.03.2015), fallout (09.03.2015), fsd101 (14.04.2015), michigayde (01.05.2015), etchusera (20.06.2015), MarioSardo (28.06.2015), karido (28.06.2015), Ruzu91 (28.06.2015), Lukkas (01.07.2015), marc800 (01.11.2015), klaus (15.01.2016), mephisto2577 (24.03.2017), jercas11 (15.06.2017), tobias (20.01.2018), Bored (22.01.2018), zottel112 (26.01.2018), arminfrey (01.02.2018), sorakrit (12.02.2018)

Rapidgator.netJoin FileFactory!

havoc7079

Uploader

Beiträge: 2 945

Registrierungsdatum: 30. Oktober 2017

Level: 37 [?]

Erfahrungspunkte: 1 114 775

Nächstes Level: 1 209 937

  • Nachricht senden

2

Samstag, 20. Januar 2018, 01:28





Title: Cody Cummings Unleashed Vol. 11
Size: 3793412023 bytes (3.53 GiB), Duration: 02:04:29, Avg. Bitrate: 4063 kb/s
Audio: aac, 44100 Hz, stereo (und)
Video: h264, yuv420p, 1280x720, 29.97 fps(r) (und)



Free Links:
CodyUnleashed11.mp4.001
CodyUnleashed11.mp4.002
CodyUnleashed11.mp4.003
CodyUnleashed11.mp4.004

Premium Link:
CodyUnleashed11.mp4


CodyUnleashed11.mp4.002
CodyUnleashed11.mp4.003
CodyUnleashed11.mp4.001
CodyUnleashed11.mp4.004

Es hat sich bereits 1 registrierter Benutzer bedankt.

Benutzer, die sich für diesen Beitrag bedankt haben:

AndreasKreuz (08.07.2018)

Rapidgator.netJoin FileFactory!


Some Friend Partner Sites: